GloDLS.to - Download Movies, TV, Games and Other Torrents Free RSS 2.0enGloDLS.to - Download Movies, TV, Games and Other Torrents FreeGloDLS.to - Download Movies, TV, Games and Other Torrents Free RSS Feedhttp://glodls.toCopyright GloDLS.to - Download Movies, TV, Games and Other Torrents FreeSat, 20 Oct 2018 18:18:29 +0100 Halloween.III.Season.of.the.Witch.1982.BRRip.XviD.MP3-XVID http://glodls.to/torrent.php?id=15971 http://glodls.to/torrent.php?id=15971 Sat, 20 Oct 2018 17:18:06 +0100 Movies
[url=https://imagecurl.com/viewer.php?file=99433265525650789474.png][img]https://imagecurl.com/images/99433265525650789474.png[/img][/url]

[url=https://imagecurl.com/viewer.php?file=27371170658718095725.png][img]https://imagecurl.com/images/27371170658718095725.png[/img][/url] ]]>
Second Parents (Craven Moorehead - Bree Mills- Pure Taboo) http://glodls.to/torrent.php?id=15970 http://glodls.to/torrent.php?id=15970 Sat, 20 Oct 2018 17:17:44 +0100 Adult XXX
Tag :- + Teens, Family Roleplay, Feature, Mature, MILF, Older Men Threesomes, DVDRip

Screenshot :-
[url=http://imgtorrnt.in/view.php?id=Lp1q0h8][color=green] http://imgtorrnt.in/view.php?id=Lp1q0h8 [/color] [/url]

[url=http://imgtorrnt.in/view.php?id=w332sW3][color=green] http://imgtorrnt.in/view.php?id=w332sW3 [/color] [/url]

[img]https://i.imgur.com/Lp1q0h8.jpg[/img]

]]>
TheWhiteBoxxx 18 10 20 Elena Vega 480p MP4-XXX http://glodls.to/torrent.php?id=15969 http://glodls.to/torrent.php?id=15969 Sat, 20 Oct 2018 17:17:18 +0100 Adult XXX
[b]Screens :[/b]

[url]https://22pixx.xyz/ia-i/5bcb631f8498f.jpeg.html[/url]

[url]https://22pixx.xyz/ia-i/5bcb631f798a5.jpeg.html[/url]

[url]https://22pixx.xyz/ia-i/5bcb631f6ec43.jpeg.html[/url]

[url]https://22pixx.xyz/ia-i/5bcb631f631dd.jpeg.html[/url]

[url]https://22pixx.xyz/ia-i/5bcb631b6958d.jpeg.html[/url]

File Size : 261 MiB
Duration : 31 min 24 s
Video : h264, yuv420p, 854x480p, 1024 Kbps
Audio : aac , 2 ch, stereo , 128 Kbps ]]>
Halloween.H20.20.Years.Later.1998.BRRip.XviD.MP3-XVID http://glodls.to/torrent.php?id=15968 http://glodls.to/torrent.php?id=15968 Sat, 20 Oct 2018 17:16:35 +0100 Movies
[url=https://imagecurl.com/viewer.php?file=29333625528217668020.png][img]https://imagecurl.com/images/29333625528217668020.png[/img][/url]

[url=https://imagecurl.com/viewer.php?file=08322023949750327453.png][img]https://imagecurl.com/images/08322023949750327453.png[/img][/url] ]]>
ValeNappi 18 10 17 I Wish To Have A Penis To Fuck Riley Reid 480p MP4-XXX http://glodls.to/torrent.php?id=15967 http://glodls.to/torrent.php?id=15967 Sat, 20 Oct 2018 17:16:34 +0100 Adult XXX
[b]Screens :[/b]

[url]https://22pixx.xyz/ia-i/5bcb62f3b94d9.jpeg.html[/url]

[url]https://22pixx.xyz/ia-i/5bcb62f3ae25d.jpeg.html[/url]

[url]https://22pixx.xyz/ia-i/5bcb62f3a2e07.jpeg.html[/url]

[url]https://22pixx.xyz/ia-i/5bcb62f396f67.jpeg.html[/url]

[url]https://22pixx.xyz/ia-i/5bcb62ef85649.jpeg.html[/url]

File Size : 246 MiB
Duration : 29 min 46 s
Video : h264, yuv420p, 854x480p, 1024 Kbps
Audio : aac , 2 ch, stereo , 128 Kbps ]]>
SneakySex 18 10 20 Mary Jean And Stella Raee Sneaky Pussies 480p MP4-XXX http://glodls.to/torrent.php?id=15966 http://glodls.to/torrent.php?id=15966 Sat, 20 Oct 2018 17:15:29 +0100 Adult XXX
[b]Screens :[/b]

[url]https://22pixx.xyz/ia-i/5bcb62b21ab5b.jpeg.html[/url]

[url]https://22pixx.xyz/ia-i/5bcb62b20fb71.jpeg.html[/url]

[url]https://22pixx.xyz/ia-i/5bcb62b204bb1.jpeg.html[/url]

[url]https://22pixx.xyz/ia-i/5bcb62b1edc12.jpeg.html[/url]

[url]https://22pixx.xyz/ia-i/5bcb62ae90c2e.jpeg.html[/url]

File Size : 468 MiB
Duration : 56 min 30 s
Video : h264, yuv420p, 854x480p, 1024 Kbps
Audio : aac , 2 ch, stereo , 128 Kbps ]]>
Cottage.Country.2013.720p.BluRay.H264.AAC http://glodls.to/torrent.php?id=15965 http://glodls.to/torrent.php?id=15965 Sat, 20 Oct 2018 17:14:55 +0100 Movies
[url=https://imagecurl.com/viewer.php?file=41494060785740667769.png][img]https://imagecurl.com/images/41494060785740667769.png[/img][/url]

[url=https://imagecurl.com/viewer.php?file=26790960570717490824.png][img]https://imagecurl.com/images/26790960570717490824.png[/img][/url] ]]>
Amateurs - 24yr old Ana fucking boyfriend http://glodls.to/torrent.php?id=15964 http://glodls.to/torrent.php?id=15964 Sat, 20 Oct 2018 17:14:08 +0100 Adult XXX
[b]Date[/b]: 2018
[b]Cast[/b]: Amateurs
[b]Genre[/b]: teen, amateurs, handjob, blowjob, hard sex, legal, anal
[b]Name[/b]: 24yr old Ana fucking boyfriend


[b]Video[/b]: AVC, 960x540, 24.000 FPS, 1476 kb/s
[b]Audio[/b]: AAC LC, 44.1 kHz, 2 channels, 128 kb/s
[b]Format[/b]: mp4
[b]Duration[/b]: 00:20:46
]]>
Amateurs - 23yr old Jodie assfucked at home http://glodls.to/torrent.php?id=15963 http://glodls.to/torrent.php?id=15963 Sat, 20 Oct 2018 17:12:15 +0100 Adult XXX
[b]Date[/b]: 2018
[b]Cast[/b]: Amateurs
[b]Genre[/b]: teen, amateurs, handjob, blowjob, hard sex, legal, anal
[b]Name[/b]: 23yr old Jodie assfucked at home


[b]Video[/b]: AVC, 1280x720, 25.000 FPS, 1870 kb/s
[b]Audio[/b]: AAC LC, 44.1 kHz, 2 channels, 77.3 kb/s
[b]Format[/b]: mp4
[b]Duration[/b]: 00:09:09
]]>
[FakeHubOriginals - FakeHub] Misha Cross Heart Attack (24 03 2018) http://glodls.to/torrent.php?id=15962 http://glodls.to/torrent.php?id=15962 Sat, 20 Oct 2018 17:10:52 +0100 Adult XXX
Tag :- Lingerie, Blonde, Tattoo, Small Tits, Hairy Pussy, Big Cock, Blowjob, Deep Throat, Doggystyle, Gonzo, Hardcore, All Sex, Facial

Screenshot :-

[url=http://imgtorrnt.in/view.php?id=91NfcaQ][color=green] http://imgtorrnt.in/view.php?id=91NfcaQ [/color] [/url]

[url=http://imgtorrnt.in/view.php?id=wyGeo38][color=green] http://imgtorrnt.in/view.php?id=wyGeo38 [/color] [/url]

[img]http://i77.fastpic.ru/big/2018/1018/ba/6aba85b5dbe51ee5c8c2767c674618ba.jpg[/img]


BTC Address - 1J6iRHTWiXg2Gjhg7ggtBrY87buscQ5ngB

]]>
Zoe Doll - Casting http://glodls.to/torrent.php?id=15960 http://glodls.to/torrent.php?id=15960 Sat, 20 Oct 2018 17:10:18 +0100 Adult XXX
[b]Date[/b]: 2018
[b]Cast[/b]: Zoe Doll
[b]Genre[/b]: Casting, Teen
[b]Name[/b]: Casting


[b]Video[/b]: AVC, 1280x720, 29.970 FPS, 2000 kb/s
[b]Audio[/b]: AAC LC, 48.0 kHz, 2 channels, 112 kb/s
[b]Format[/b]: mp4
[b]Duration[/b]: 00:20:34
]]>
Lizi Vogue - Casting http://glodls.to/torrent.php?id=15959 http://glodls.to/torrent.php?id=15959 Sat, 20 Oct 2018 17:08:17 +0100 Adult XXX
[b]Date[/b]: 2018
[b]Cast[/b]: Lizi Vogue
[b]Genre[/b]: Casting, Teen
[b]Name[/b]: Casting


[b]Video[/b]: AVC, 1280x720, 29.970 FPS, 2000 kb/s
[b]Audio[/b]: AAC LC, 48.0 kHz, 2 channels, 112 kb/s
[b]Format[/b]: mp4
[b]Duration[/b]: 00:29:48
]]>
Halloween.5.1989.1080p.BluRay.H264.AAC http://glodls.to/torrent.php?id=15958 http://glodls.to/torrent.php?id=15958 Sat, 20 Oct 2018 17:08:03 +0100 Movies
[url=https://imagecurl.com/viewer.php?file=41393471909320903211.png][img]https://imagecurl.com/images/41393471909320903211.png[/img][/url]

[url=https://imagecurl.com/viewer.php?file=78796384076595646604.png][img]https://imagecurl.com/images/78796384076595646604.png[/img][/url]

[url=https://imagecurl.com/viewer.php?file=97041513200412149151.png][img]https://imagecurl.com/images/97041513200412149151.png[/img][/url]

[url=https://imagecurl.com/viewer.php?file=02176033738685041220.png][img]https://imagecurl.com/images/02176033738685041220.png[/img][/url] ]]>
FakeHostel 18 10 20 Rossella Visconti 480p MP4-XXX http://glodls.to/torrent.php?id=15957 http://glodls.to/torrent.php?id=15957 Sat, 20 Oct 2018 17:07:34 +0100 Adult XXX
[b]Screens :[/b]

[url]https://22pixx.xyz/ia-i/5bcb60d727fe6.jpeg.html[/url]

[url]https://22pixx.xyz/ia-i/5bcb60d71caf1.jpeg.html[/url]

[url]https://22pixx.xyz/ia-i/5bcb60d711ab2.jpeg.html[/url]

[url]https://22pixx.xyz/ia-i/5bcb60d706872.jpeg.html[/url]

[url]https://22pixx.xyz/ia-i/5bcb60d32d04c.jpeg.html[/url]

File Size : 275 MiB
Duration : 33 min 15 s
Video : h264, yuv420p, 854x480p, 1024 Kbps
Audio : aac , 2 ch, stereo , 128 Kbps ]]>
TMZ.on.TV.2018.10.18.480p.x264-mSD[TGx] http://glodls.to/torrent.php?id=15956 http://glodls.to/torrent.php?id=15956 Sat, 20 Oct 2018 17:07:12 +0100 TV
[b]TMZ.on.TV.2018.10.18.480p.x264-mSD[TGx][/b]
[url]https://www.imdb.com/title/tt1095213[/url]


Upload provided by TorrentGalaxy
Visit us @ [url]https://torrentgalaxy.org[/url]


[b]SERIES INFO[/b]
[b]Genre[/b]: News
[b]Stars[/b]: Dax Holt, Jim Goldenberg, Harvey Levin, Antonio Martinez, Mike White, Beau Wilson, Max Hodges
[b]Series Plot[/b]: null

-----------------------------------------------------------------------------------

[b]EPISODE INFO[/b]
[b]Title[/b]: 10/18/18
[b]Airdate[/b]: 2018-10-18
[b]Episode plot[/b]: null

-----------------------------------------------------------------------------------

[b]SCREENSHOTS[/b]
(Click to enlarge)
[url=https://imgmak.com/image/j6K][img]https://imgmak.com/images/2018/10/20/HappyRoboto5330.th.jpg[/img][/url] [url=https://imgmak.com/image/j6T][img]https://imgmak.com/images/2018/10/20/HappyRoboto12581.th.jpg[/img][/url] [url=https://imgmak.com/image/j6a][img]https://imgmak.com/images/2018/10/20/HappyRoboto6293.th.jpg[/img][/url] [url=https://imgmak.com/image/j6p][img]https://imgmak.com/images/2018/10/20/HappyRoboto6571.th.jpg[/img][/url] [url=https://imgmak.com/image/j6R][img]https://imgmak.com/images/2018/10/20/HappyRoboto25287.th.jpg[/img][/url] [url=https://imgmak.com/image/j6b][img]https://imgmak.com/images/2018/10/20/HappyRoboto22639.th.jpg[/img][/url]

-----------------------------------------------------------------------------------

[b]MEDIAINFO[/b]
Container = Matroska (mkv)
Duration = 00:19:17.841
Filesize = 105 MiB
--ViDEO
Codec info = AVC High@L3 | V_MPEG4/ISO/AVC
Resolution = 640x480
Display AR = 1.778 | 16:9
Bitrate = 618 kb/s
Framerate = CFR 29.970
Color space = YUV
Chroma subsampling = 4:2:0
Encoder = x264 - core 152 r2851 ba24899
--AUDiO
Codec info = MPEG Audio Layer 3 | A_MPEG/L3
Channels = 2
Bitrate = CBR 128 kb/s
Samplerate = 44.1 kHz
Language = English ]]>
Bunny Love - Casting http://glodls.to/torrent.php?id=15955 http://glodls.to/torrent.php?id=15955 Sat, 20 Oct 2018 17:06:10 +0100 Adult XXX
[b]Date[/b]: 2018
[b]Cast[/b]: Bunny Love
[b]Genre[/b]: Casting, Teen
[b]Name[/b]: Casting


[b]Video[/b]: AVC, 1280x720, 29.970 FPS, 2000 kb/s
[b]Audio[/b]: AAC LC, 48.0 kHz, 2 channels, 112 kb/s
[b]Format[/b]: mp4
[b]Duration[/b]: 00:21:15
]]>
[Clips4Sale]Nina Skye - Sisters After School Special http://glodls.to/torrent.php?id=15954 http://glodls.to/torrent.php?id=15954 Sat, 20 Oct 2018 17:06:00 +0100 Adult XXX [center][URL=http://hdmoza.com//img-5bcb5e5d63fe3.html][IMG]http://hdmoza.com//upload/small/2018/10/20/5bcb5e5d63fac.jpg[/IMG][/URL]
[size=4]

Nina Skye - Sisters After School Special
Category: Incest, Taboo, Roleplay, Family Sex, POV, All Sex
File size: 284 MB
Duration: 00:13:23

[b]SCREENS:[/b]

[url]http://hdmoza.com//img-5bcb5e6c9d36b.html[/url]
[url]https://www.iceimg.net/site/v/7761130#2405&7761130[/url]


[b]SHOOT:[/b]


[url]http://picmoza.com//img-5bcb6012884d8.html[/url]
[/size]
[/center] ]]>
FakehubOriginals 18 10 20 Ella Hughes And Lola Marie 480p MP4-XXX http://glodls.to/torrent.php?id=15952 http://glodls.to/torrent.php?id=15952 Sat, 20 Oct 2018 17:04:30 +0100 Adult XXX
[b]Screens :[/b]

[url]https://22pixx.xyz/ia-i/5bcb601f10b0f.jpeg.html[/url]

[url]https://22pixx.xyz/ia-i/5bcb601f04643.jpeg.html[/url]

[url]https://22pixx.xyz/ia-i/5bcb601eebe00.jpeg.html[/url]

[url]https://22pixx.xyz/ia-i/5bcb601ee08dd.jpeg.html[/url]

[url]https://22pixx.xyz/ia-i/5bcb6018a659e.jpeg.html[/url]

File Size : 273 MiB
Duration : 33 min 20 s
Video : h264, yuv420p, 854x480p, 1024 Kbps
Audio : aac , 2 ch, stereo , 128 Kbps ]]>
Ariel Wuze - Casting http://glodls.to/torrent.php?id=15951 http://glodls.to/torrent.php?id=15951 Sat, 20 Oct 2018 17:04:08 +0100 Adult XXX
[b]Date[/b]: 2018
[b]Cast[/b]: Ariel Wuze
[b]Genre[/b]: Casting, Teen
[b]Name[/b]: Casting


[b]Video[/b]: AVC, 1280x720, 29.970 FPS, 2000 kb/s
[b]Audio[/b]: AAC LC, 48.0 kHz, 2 channels, 112 kb/s
[b]Format[/b]: mp4
[b]Duration[/b]: 00:15:52
]]>
Lena Paul [ElegantAnal - Babes] Wet Series Glisten (17 10 2018) http://glodls.to/torrent.php?id=15950 http://glodls.to/torrent.php?id=15950 Sat, 20 Oct 2018 17:04:01 +0100 Adult XXX
Tag :- Anal

Screenshot :-

[url=http://imgtorrnt.in/view.php?id=NgjCF6f][color=green] http://imgtorrnt.in/view.php?id=NgjCF6f [/color] [/url]

[url=http://imgtorrnt.in/view.php?id=97ffx1j][color=green] http://imgtorrnt.in/view.php?id=97ffx1j [/color] [/url]

[img]http://i89.fastpic.ru/big/2018/1010/cf/4dcae152e9593d32a4e341ed26f171cf.jpg[/img]


BTC Address - 1J6iRHTWiXg2Gjhg7ggtBrY87buscQ5ngB

]]>
Nikki - Modeling Audition http://glodls.to/torrent.php?id=15949 http://glodls.to/torrent.php?id=15949 Sat, 20 Oct 2018 17:02:13 +0100 Adult XXX
[b]Date[/b]: 2018
[b]Cast[/b]: Nikki
[b]Genre[/b]: Casting, Teen, Hard sex, Pussy Fucking, Cum Shot, Masturbation, Toys, Partial Creampie
[b]Name[/b]: Modeling Audition


[b]Video[/b]: AVC, 1280x720, 23.976 FPS, 603 kb/s
[b]Audio[/b]: AAC LC, 48.0 kHz, 2 channels, 192 kb/s
[b]Format[/b]: mp4
[b]Duration[/b]: 01:14:06
]]>
Halloween.5.1989.720p.BluRay.H264.AAC http://glodls.to/torrent.php?id=15948 http://glodls.to/torrent.php?id=15948 Sat, 20 Oct 2018 17:00:33 +0100 Movies
[url=https://imagecurl.com/viewer.php?file=91028945186754676382.png][img]https://imagecurl.com/images/91028945186754676382.png[/img][/url]

[url=https://imagecurl.com/viewer.php?file=37421233263886664308.png][img]https://imagecurl.com/images/37421233263886664308.png[/img][/url]

[url=https://imagecurl.com/viewer.php?file=67529120294259246257.png][img]https://imagecurl.com/images/67529120294259246257.png[/img][/url]

[url=https://imagecurl.com/viewer.php?file=94410421844322253419.png][img]https://imagecurl.com/images/94410421844322253419.png[/img][/url] ]]>
Bay City Rollers - Original Album Classics -5-CD -(2013)-[FLAC]-[TFM] http://glodls.to/torrent.php?id=15947 http://glodls.to/torrent.php?id=15947 Sat, 20 Oct 2018 16:59:33 +0100 Music [img]http://s1.bild.me/bilder/060112/7223894folder.PNG[/img]
[img]http://s1.bild.me/bilder/060112/5852387wellkomm.gif[/img]
[img]http://s1.bild.me/bilder/060112/9367843flac.gif[/img]


[b][i][color=Green]Bay City Rollers - Rollin'[/color][/i][/b]

[img]http://s1.bild.me/bilder/060112/2786529informationee.gif[/img]

[b][i][color=Green]Artist...............: Bay City Rollers
Album................: Rollin'
Genre................: Pop / Rock
Source...............: CD
Year.................: 2013
Ripper...............: Exact Audio Copy (Secure mode) & LG HL-DT-ST RW/DVD GCC-4120
Codec................: Free Lossless Audio Codec (FLAC)
Version..............: reference libFLAC 1.2.1 20070917
Quality..............: Lossless, (avg. compression: 66 %)
Channels.............: Stereo / 44100 HZ / 16 Bit
Tags.................: VorbisComment
Information..........:

Ripped by............: [TFM] on 2018.09.09.
Posted by............: [TFM] on 2018.09.09.
News Server..........:
News Group(s)........: ahashare. sounds FLAC

Included.............: LOG, CUE, audiochecker.
Covers...............: Front Back CD[/color][/i][/b]

[img]http://s1.bild.me/bilder/060112/8362179trackeliste.gif[/img]

[b][i][color=Green]1. Bay City Rollers - Shang-A-Lang [03:07]
2. Bay City Rollers - Give It To Me Now [03:50]
3. Bay City Rollers - Angel Angel [02:28]
4. Bay City Rollers - Be My Baby [03:27]
5. Bay City Rollers - Just A Little Love [02:56]
6. Bay City Rollers - Remember (Sha La La La) [02:33]
7. Bay City Rollers - Saturday Night [02:57]
8. Bay City Rollers - Ain't It Strange [02:11]
9. Bay City Rollers - Please Stay [03:55]
10. Bay City Rollers - Jenny Gotta Dance [03:07]
11. Bay City Rollers - There Goes My Baby [03:19]
12. Bay City Rollers - Summer Love Sensation [03:14]
13. Bay City Rollers - Are You Ready For That Rock & Roll [03:28]
14. Bay City Rollers - Bringing Back The Good Times [03:43]
15. Bay City Rollers - Bye Bye Barbara [02:37]
16. Bay City Rollers - Hey C.B. [03:02]

Playing Time.........: 50:02
Total Size...........: 335,06 MB[/color][/i][/b]

[img]http://s1.bild.me/bilder/060112/5937438vonal3.gif[/img]

[b][i][color=Green]Bay City Rollers - Once Upon A Star[/color][/i][/b]


[b][i][color=Green]1. Bay City Rollers - Bye Bye Baby [02:50]
2. Bay City Rollers - The Disco Kid [03:16]
3. Bay City Rollers - La Belle Jeané [04:01]
4. Bay City Rollers - When Will You Be Mine [02:32]
5. Bay City Rollers - Angel Baby [03:52]
6. Bay City Rollers - Keep On Dancing (Version 1975) [02:42]
7. Bay City Rollers - Once Upon A Star [03:00]
8. Bay City Rollers - Let's Go [03:28]
9. Bay City Rollers - Marlina [03:01]
10. Bay City Rollers - My Teenage Heart [02:31]
11. Bay City Rollers - Rock And Roll Honeymoon [02:45]
12. Bay City Rollers - Hey! Beautiful Dreamer [03:52]
13. Bay City Rollers - All Of Me Loves All Of You [03:07]
14. Bay City Rollers - The Bump [02:35]
15. Bay City Rollers - Keep On Dancing (Single Version 1971)[02:10]
16. Bay City Rollers - Alright [02:07]
17. Bay City Rollers - It's For You [03:26]

Playing Time.........: 51:19
Total Size...........: 330,28 MB[/color][/i][/b]

[img]http://s1.bild.me/bilder/060112/5937438vonal3.gif[/img]

[b][i][color=Green]Bay City Rollers - Wouldn't You Like It[/color][/i][/b]


[b][i][color=Green]1. Bay City Rollers - I Only Wanna Dance With You [02:59]
2. Bay City Rollers - Don't Stop The Music [02:49]
3. Bay City Rollers - Shanghai'd In Love [03:29]
4. Bay City Rollers - Love Is [02:38]
5. Bay City Rollers - Maybe I'm A Fool To Love You [03:55]
6. Bay City Rollers - Too Young To Rock & Roll [02:17]
7. Bay City Rollers - Saturday Night [02:54]
8. Bay City Rollers - Give A Little Love [03:28]
9. Bay City Rollers - Wouldn't You Like It [03:14]
10. Bay City Rollers - Here Comes That Feeling Again [03:41]
11. Bay City Rollers - Lovely To See You [03:57]
12. Bay City Rollers - Eagles Fly [03:04]
13. Bay City Rollers - Derek's End Piece [02:34]
14. Bay City Rollers - She'll Be Crying Over You [03:12]
15. Bay City Rollers - Wouldn't You Like It? (Version 1972) [02:58]
16. Bay City Rollers - I'd Do It Again [02:55]

Playing Time.........: 50:12
Total Size...........: 344,03 MB[/color][/i][/b]

[img]http://s1.bild.me/bilder/060112/5937438vonal3.gif[/img]

[b][i][color=Green]Bay City Rollers - Dedication[/color][/i][/b]


[b][i][color=Green]1. Bay City Rollers - Let's Pretend [03:31]
2. Bay City Rollers - You're A Woman [04:16]
3. Bay City Rollers - Rock 'n Roller [03:35]
4. Bay City Rollers - Don't Worry Baby [03:08]
5. Bay City Rollers - Yesterdays Hero [04:34]
6. Bay City Rollers - My Lisa [03:36]
7. Bay City Rollers - Money Honey [03:19]
8. Bay City Rollers - Rock And Roll Love Letter [02:58]
9. Bay City Rollers - Write A Letter [03:51]
10. Bay City Rollers - Dedication [03:56]
11. Bay City Rollers - I Only Wanna Be With You [03:40]
12. Bay City Rollers - Love Me Like I Love You [03:22]
13. Bay City Rollers - Mama Li [03:17]
14. Bay City Rollers - Maryanne [02:46]

Playing Time.........: 49:55
Total Size...........: 339,97 MB[/color][/i][/b]

[img]http://s1.bild.me/bilder/060112/5937438vonal3.gif[/img]

[b][i][color=Green]Bay City Rollers - It's A Game[/color][/i][/b]


[b][i][color=Green]1. Bay City Rollers - It's A Game [03:01]
2. Bay City Rollers - You Made Me Believe In Magic [02:45]
3. Bay City Rollers - Don't Let The Music Die [05:50]
4. Bay City Rollers - Love Power [03:34]
5. Bay City Rollers - The Way I Feel Tonight [03:58]
6. Bay City Rollers - The Pie (When I Say I Love You) [04:01]
7. Bay City Rollers - Love Fever [04:38]
8. Bay City Rollers - Sweet Virginia [02:55]
9. Bay City Rollers - Inside A Broken Dream [03:45]
10. Bay City Rollers - Dance, Dance, Dance [03:36]
11. Bay City Rollers - Rebel Rebel [03:40][/color][/i][/b]

[img]http://s1.bild.me/bilder/060112/2270092pleseedee1.gif[/img]

[img]http://s1.bild.me/bilder/060112/3895751th049.gif[/img]

[b][i][color=Green]Playing Time.........: 41:49
Total Size...........: 315,49 MB[/color][/i][/b]


[URL=https://www.discogs.com/Bay-City-Rollers-Original-Album-Classics/release/5030757][img]http://s1.bild.me/bilder/060112/1227895discogs.png[/img][/URL] ]]>
Passion-HD 18 10 20 Zoe Bloom Sorority Sneak 480p MP4-XXX http://glodls.to/torrent.php?id=15946 http://glodls.to/torrent.php?id=15946 Sat, 20 Oct 2018 16:58:49 +0100 Adult XXX
[b]Screens :[/b]

[url]https://22pixx.xyz/ia-i/5bcb5ec9cc274.jpeg.html[/url]

[url]https://22pixx.xyz/ia-i/5bcb5ec9c1048.jpeg.html[/url]

[url]https://22pixx.xyz/ia-i/5bcb5ec9b56e8.jpeg.html[/url]

[url]https://22pixx.xyz/ia-i/5bcb5ec9a9e2e.jpeg.html[/url]

[url]https://22pixx.xyz/ia-i/5bcb5ec5814ef.jpeg.html[/url]

File Size : 241 MiB
Duration : 29 min 5 s
Video : h264, yuv420p, 854x480p, 1024 Kbps
Audio : aac , 2 ch, stereo , 128 Kbps ]]>
Hayden - Modeling Audition http://glodls.to/torrent.php?id=15945 http://glodls.to/torrent.php?id=15945 Sat, 20 Oct 2018 16:58:15 +0100 Adult XXX
[b]Date[/b]: 2018
[b]Cast[/b]: Hayden
[b]Genre[/b]: Casting, Teen, Hard sex, Pussy Fucking, Cum Shot, Masturbation, Toys
[b]Name[/b]: Modeling Audition


[b]Video[/b]: AVC, 1280x720, 23.976 FPS, 603 kb/s
[b]Audio[/b]: AAC LC, 48.0 kHz, 2 channels, 192 kb/s
[b]Format[/b]: mp4
[b]Duration[/b]: 01:14:45
]]>
BlowBangGirls 18 10 19 Charlotte 480p MP4-XXX http://glodls.to/torrent.php?id=15944 http://glodls.to/torrent.php?id=15944 Sat, 20 Oct 2018 16:58:11 +0100 Adult XXX
[b]Screens :[/b]

[url]https://22pixx.xyz/ia-i/5bcb5ea48ab3e.jpeg.html[/url]

[url]https://22pixx.xyz/ia-i/5bcb5ea47ff54.jpeg.html[/url]

[url]https://22pixx.xyz/ia-i/5bcb5ea47532d.jpeg.html[/url]

[url]https://22pixx.xyz/ia-i/5bcb5ea469bd0.jpeg.html[/url]

[url]https://22pixx.xyz/ia-i/5bcb5e9a22731.jpeg.html[/url]

File Size : 270 MiB
Duration : 32 min 51 s
Video : h264, yuv420p, 854x480p, 1024 Kbps
Audio : aac , 2 ch, stereo , 128 Kbps ]]>
Bad Boys Blue - Super 20 - (1989)-[FLAC]-[TFM] http://glodls.to/torrent.php?id=15943 http://glodls.to/torrent.php?id=15943 Sat, 20 Oct 2018 16:57:44 +0100 Music [img]http://s1.bild.me/bilder/060112/1209547badboysblue.PNG[/img]
[img]http://s1.bild.me/bilder/060112/5852387wellkomm.gif[/img]
[img]http://s1.bild.me/bilder/060112/9367843flac.gif[/img]


[b][i][color=Green]Bad Boys Blue - Super 20[/color][/i][/b]

[img]http://s1.bild.me/bilder/060112/2786529informationee.gif[/img]

[b][i][color=Green]Artist...............: Bad Boys Blue
Album................: Super 20
Genre................: Pop / Disco
Source...............: CD
Year.................: 1998
Ripper...............: Exact Audio Copy (Secure mode) & LG HL-DT-ST RW/DVD GCC-4120
Codec................: Free Lossless Audio Codec (FLAC)
Version..............: reference libFLAC 1.2.1 20070917
Quality..............: Lossless, (avg. compression: 66 %)
Channels.............: Stereo / 44100 HZ / 16 Bit
Tags.................: VorbisComment
Information..........:

Ripped by............: [TFM] on 2018.08.01.
Posted by............: [TFM] on 2018.08.13.
News Server..........:
News Group(s)........: ahashare. sounds FLAC

Included.............: M3U, CUE
Covers...............: Front Back CD[/color][/i][/b]

[img]http://s1.bild.me/bilder/060112/8362179trackeliste.gif[/img]

[b][i][color=Green]1. Bad Boys Blue - Lady In Black (Radio Edit) [03:49]
2. Bad Boys Blue - Come Back And Stay [04:08]
3. Bad Boys Blue - Gimmie, Gimmie Your Lovin' (Little Lady)[03:57]
4. Bad Boys Blue - Hungry For Love (Radio Edit) [04:16]
5. Bad Boys Blue - Don't Walk Away, Suzanne [03:47]
6. Bad Boys Blue - L.O.V.E. In My Car [04:04]
7. Bad Boys Blue - You're A Woman [03:58]
8. Bad Boys Blue - A World Without You (Michelle) (Radio Edit)[03:39]
9. Bad Boys Blue - I Want To Hear Your Heart-Beat (Sunday Girl)[04:05]
10. Bad Boys Blue - Pretty Young Girl [03:35]
11. Bad Boys Blue - Kisses And Tears (My One And Only) [04:00]
12. Bad Boys Blue - Love Really Hurts Without You [03:43]
13. Bad Boys Blue - Lovers In The Sand [03:42]
14. Bad Boys Blue - Kiss You All Over, Baby (New Version) [04:13]
15. Bad Boys Blue - Hot Girls - Bad Boys [04:09]
16. Bad Boys Blue - One Night In Heaven [04:51]
17. Bad Boys Blue - Baby I Love You [04:01]
18. Bad Boys Blue - Love Is No Crime [03:36]
19. Bad Boys Blue - Inside Of Me [03:47]
20. Bad Boys Blue - Blue Moon [04:32][/color][/i][/b]

[img]http://s1.bild.me/bilder/060112/2270092pleseedee1.gif[/img]

[img]http://s1.bild.me/bilder/060112/3895751th049.gif[/img]

[b][i][color=Green]Playing Time.........: 01:19:58
Total Size...........: 530,02 MB[/color][/i][/b]


[URL=https://www.discogs.com/Bad-Boys-Blue-Super-20/release/657569][img]http://s1.bild.me/bilder/060112/1227895discogs.png[/img][/URL] ]]>
Halloween (2018) 720p English Pre-DVDRip x264 AAC by Full4movies http://glodls.to/torrent.php?id=15942 http://glodls.to/torrent.php?id=15942 Sat, 20 Oct 2018 16:57:22 +0100 Movies
General
Complete name : Halloween (2018) 720p English Pre-DVDRip x264 AAC by Full4movies.mkv
Format : Matroska
Format version : Version 4 / Version 2
File size : 887 MiB
Duration : 1 h 41 min
Overall bit rate : 1 226 kb/s
Movie name : www.Full4movies.co
Encoded date : UTC 2018-10-20 16:02:21
Writing application : mkvmerge v8.1.0 ('Psychedelic Postcard') 32bit
Writing library : libebml v1.3.1 + libmatroska v1.4.2

Video
ID : 1
Format : AVC
Format/Info : Advanced Video Codec
Format profile : High@L3.1
Format settings, CABAC : Yes
Format settings, RefFrames : 5 frames
Codec ID : V_MPEG4/ISO/AVC
Duration : 1 h 41 min
Bit rate : 1 088 kb/s
Width : 1 280 pixels
Height : 536 pixels
Display aspect ratio : 2.40:1
Frame rate mode : Variable
Frame rate : 29.970 (30000/1001) FPS
Color space : YUV
Chroma subsampling : 4:2:0
Bit depth : 8 bits
Scan type : Progressive
Bits/(Pixel*Frame) : 0.053
Stream size : 792 MiB (89%)
Writing library : x264 core 148 r2643 5c65704
Language : English
Default : Yes
Forced : No

Audio
ID : 2
Format : AAC
Format/Info : Advanced Audio Codec
Format profile : LC
Codec ID : A_AAC
Duration : 1 h 41 min
Bit rate : 128 kb/s
Channel(s) : 2 channels
Channel positions : Front: L R
Sampling rate : 48.0 kHz
Frame rate : 46.875 FPS (1024 SPF)
Compression mode : Lossy
Delay relative to video : -43 ms
Stream size : 92.6 MiB (10%)
Language : English
Default : Yes
Forced : No

[b]Screen Shoots[/b]
[img]https://extraimage.net/images/2018/10/20/84d464f3f319bd522f5917821e598724.jpg[/img] ]]>
[EuroGirlsOnGirls - DDFNetwork] Aleska Diamond- Sandra Shine - Joint these hot lesbians at pool http://glodls.to/torrent.php?id=15941 http://glodls.to/torrent.php?id=15941 Sat, 20 Oct 2018 16:57:05 +0100 Adult XXX
Tag :- Lesbian, Cunnilingus, Fingering

Screenshot :-
[url=http://imgtorrnt.in/view.php?id=K1Nel1f][color=green] http://imgtorrnt.in/view.php?id=K1Nel1f [/color] [/url]

[url=http://imgtorrnt.in/view.php?id=RjmCYJz][color=green] http://imgtorrnt.in/view.php?id=RjmCYJz [/color] [/url]

[img]https://i.imgur.com/K1Nel1f.jpg[/img]

]]>
Armin Van Buuren - A State Of Trance Ibiza 2018 - 2-CD-(2018)[FLAC]-[TFM] http://glodls.to/torrent.php?id=15939 http://glodls.to/torrent.php?id=15939 Sat, 20 Oct 2018 16:56:14 +0100 Music [img]http://s1.bild.me/bilder/060112/5545046arminvanbuuren.PNG[/img]
[img]http://s1.bild.me/bilder/060112/5852387wellkomm.gif[/img]
[img]http://s1.bild.me/bilder/060112/9367843flac.gif[/img]


[b][i][color=Green]Armin Van Buuren - A State Of Trance Ibiza 2018 - Disc 1[/color][/i][/b]

[img]http://s1.bild.me/bilder/060112/2786529informationee.gif[/img]

[b][i][color=Green]Artist...............: Armin Van Buuren
Album................: A State Of Trance Ibiza 2018 - Disc 1
Genre................: Trance
Source...............: CD
Year.................: 2018
Ripper...............: Exact Audio Copy (Secure mode) & LG HL-DT-ST RW/DVD GCC-4120
Codec................: Free Lossless Audio Codec (FLAC)
Version..............: reference libFLAC 1.3.2 20170101
Quality..............: Lossless, (avg. compression: 79 %)
Channels.............: Stereo / 44100 HZ / 16 Bit
Tags.................: VorbisComment
Information..........:

Ripped by............: [TFM] on 2018.09.12.
Posted by............: [TFM] on 2018.09.12.
News Server..........:
News Group(s)........: ahashare. sounds FLAC

Included.............: M3U, CUE, audiochecker
Covers...............: Front Back CD[/color][/i][/b]

[img]http://s1.bild.me/bilder/060112/8362179trackeliste.gif[/img]

[b][i][color=Green] 1. Armin van Buuren & Shapov - Our Origin [07:52]
2. Assaf - Trinity (Sound Quelle & Max Meyer Remix) [02:27]
3. Alpha 9 - Sleepwalker [03:34]
4. Probspot - Blueberry (Daniel Wanrooy Remix) [03:26]
5. Maor Levi - Light Years [03:41]
6. Armin van Buuren Feat. James Newman - Therapy (Super8 & Tab Remix)[03:19]
7. Denis Kenzo & Sveta B. - Sweet Lie [04:05]
8. Myon & Late Night Alumni - Hearts & Silence (Myon Club Mix)[04:55]
9. Arty - Tim [03:19]
10. Sodality - Challenger [03:26]
11. Fast Distance - Cosmos [03:41]
12. D-Mad - Comeback [02:57]
13. Cubicore & Shane54 - Budokan [02:27]
14. Fatum - Petra [02:38]
15. Jorn van Deynhoven - Fiesta Del Sol [04:11]
16. Henry Dark - Blue Days & Black Nights [02:57]
17. Omnia - Cyberpunk [03:19]
18. Alexander Popov & Ruben de Ronde - Luna [02:57]
19. Kyau & Albert & Steve Brian - Reverie [04:55]
20. Maori Levi - Vintage [04:34]

Playing Time.........: 01:14:49
Total Size...........: 591,66 MB[/color][/i][/b]

[img]http://s1.bild.me/bilder/060112/5937438vonal3.gif[/img]

[b][i][color=Green]Armin Van Buuren - A State Of Trance Ibiza 2018 - Disc 1[/color][/i][/b]

[b][i][color=Green] 1. Armin van Buuren, Vini Vici & Alok Feat. Zafrir - United[07:10]
2. Beatsole - Pearl [02:49]
3. Eximinds & Jean Clemence - Gravitation [02:28]
4. Super8 & Tab - Blockchain [02:49]
5. Rene Ablaze & Jam da Bass - From Dusk Till Dawn [02:46]
6. Tempo Giusto - Solace In Your Eyes (Decade Mix) [03:31]
7. STANDERWICK - I've Been Thinking About You [02:54]
8. Ben Gold & Allen Watts - Strike As One [02:08]
9. Yuri Kane - Right Back (Solis & Sean Truby Remix) [03:00]
10. Assaf - Heliades [03:56]
11. The Noble Six - Black Lotus [03:25]
12. Richard Durand - The Air I Breathe [03:12]
13. Chris Schweizer Feat. Roxanne Emery - Under The Light [04:24]
14. Moonsouls & Zara Taylor - Let It Go [03:39]
15. Oliver Cattley & Kiyoi & Eky - Zubr [03:39]
16. Heatbeat - Stadium Arcadium [02:58]
17. Allen Watts & Talla 2XLC - Equinox [02:17]
18. Ultra Shock - The Sound Of E (Jorn van Deynhoven Remix) [04:06]
19. Perry O'Neil - Wave Force (South Of The Stars Remix) [03:12]
20. Splinta - Shock Therapy (Rising Altitude Mix) [04:06]
21. Armin van Buuren - Blah Blah Blah [05:18][/color][/i][/b]

[img]http://s1.bild.me/bilder/060112/2270092pleseedee1.gif[/img]

[img]http://s1.bild.me/bilder/060112/3895751th049.gif[/img]

[b][i][color=Green]Playing Time.........: 01:13:57
Total Size...........: 587,83 MB[/color][/i][/b]


[URL=https://www.discogs.com/Armin-van-Buuren-A-State-Of-Trance-Ibiza-2018/release/12381570][img]http://s1.bild.me/bilder/060112/1227895discogs.png[/img][/URL] ]]>
Cherry Crush - Puppy Solo http://glodls.to/torrent.php?id=15938 http://glodls.to/torrent.php?id=15938 Sat, 20 Oct 2018 16:56:09 +0100 Adult XXX
[b]Date[/b]: 2018
[b]Cast[/b]: Cherry Crush
[b]Genre[/b]: solo, toys, teen
[b]Name[/b]: Puppy Solo


[b]Video[/b]: AVC, 640x360, 59.940 FPS, 2226 kb/s
[b]Audio[/b]: AAC LC, 48.0 kHz, 2 channels, 317 kb/s
[b]Format[/b]: mp4
[b]Duration[/b]: 00:14:51
]]>
Halloween.2007.UNRATED.1080p.BluRay.H264.AAC http://glodls.to/torrent.php?id=15937 http://glodls.to/torrent.php?id=15937 Sat, 20 Oct 2018 16:55:30 +0100 Movies
[url=https://imagecurl.com/viewer.php?file=22405752222071700316.png][img]https://imagecurl.com/images/22405752222071700316.png[/img][/url]

[url=https://imagecurl.com/viewer.php?file=12678144860813277454.png][img]https://imagecurl.com/images/12678144860813277454.png[/img][/url]

[url=https://imagecurl.com/viewer.php?file=17481177492779747990.png][img]https://imagecurl.com/images/17481177492779747990.png[/img][/url]

[url=https://imagecurl.com/viewer.php?file=85999062100239175319.png][img]https://imagecurl.com/images/85999062100239175319.png[/img][/url] ]]>
CumFortune E477 Lina Joy 480p MP4-XXX http://glodls.to/torrent.php?id=15936 http://glodls.to/torrent.php?id=15936 Sat, 20 Oct 2018 16:55:21 +0100 Adult XXX
[b]Screens :[/b]

[url]https://22pixx.xyz/ia-i/5bcb5df9da043.jpeg.html[/url]

[url]https://22pixx.xyz/ia-i/5bcb5df9cef7d.jpeg.html[/url]

[url]https://22pixx.xyz/ia-i/5bcb5df9c405d.jpeg.html[/url]

[url]https://22pixx.xyz/ia-i/5bcb5df9b8f1a.jpeg.html[/url]

[url]https://22pixx.xyz/ia-i/5bcb5de330098.jpeg.html[/url]

File Size : 176 MiB
Duration : 21 min 20 s
Video : h264, yuv420p, 854x480p, 1024 Kbps
Audio : aac , 2 ch, stereo , 128 Kbps ]]>
ValeNappi 18 10 17 Dominated 480p MP4-XXX http://glodls.to/torrent.php?id=15935 http://glodls.to/torrent.php?id=15935 Sat, 20 Oct 2018 16:55:10 +0100 Adult XXX
[b]Screens :[/b]

[url]https://22pixx.xyz/ia-i/5bcb5def33e0d.jpeg.html[/url]

[url]https://22pixx.xyz/ia-i/5bcb5def28b0e.jpeg.html[/url]

[url]https://22pixx.xyz/ia-i/5bcb5def1dd77.jpeg.html[/url]

[url]https://22pixx.xyz/ia-i/5bcb5def12956.jpeg.html[/url]

[url]https://22pixx.xyz/ia-i/5bcb5dd4a09df.jpeg.html[/url]

File Size : 147 MiB
Duration : 17 min 42 s
Video : h264, yuv420p, 854x480p, 1024 Kbps
Audio : aac , 2 ch, stereo , 128 Kbps ]]>
[Clips4Sale]Sadie Holmes - Mothers Milk and Honey http://glodls.to/torrent.php?id=15934 http://glodls.to/torrent.php?id=15934 Sat, 20 Oct 2018 16:54:45 +0100 Adult XXX [center][URL=http://picmoza.com//img-5bcb5e0057889.html][IMG]http://picmoza.com//upload/small/2018/10/20/5bcb5e0057853.jpg[/IMG][/URL]
[size=4]

Sadie Holmes - Mothers Milk and Honey
Category: Incest, Taboo, Roleplay, Family Sex, POV, All Sex
File size: 274 MB
Duration: 00:12:59

[b]SCREENS:[/b]

[url]http://picmoza.com//img-5bcb5e10e1ae9.html[/url]
[url]https://www.iceimg.net/site/v/7761050#2405&7761050[/url]


[b]SHOOT:[/b]


[url]http://hdmoza.com//img-5bcb5cabef1ce.html[/url]
[/size]
[/center] ]]>
Al Di Meola - Original Album Classics - (2010)-[MP3-320]-[TFM] http://glodls.to/torrent.php?id=15933 http://glodls.to/torrent.php?id=15933 Sat, 20 Oct 2018 16:54:31 +0100 Music [img]http://s1.bild.me/bilder/060112/6911301aldimeola.PNG[/img]
[img]http://s1.bild.me/bilder/060112/5852387wellkomm.gif[/img]


[b][i][color=Green]Al Di Meola - Land Of The Midnight Sun[/color][/i][/b]

[img]http://s1.bild.me/bilder/060112/2786529informationee.gif[/img]

[b][i][color=Green]Artist...............: Al Di Meola
Album................: Land Of The Midnight Sun
Genre................: Jazz
Source...............: CD
Year.................: 2010
Ripper...............: Exact Audio Copy (Secure mode) & LG HL-DT-ST RW/DVD GCC-4120
Codec................: LAME 3.98
Version..............: MPEG 1 Layer III
Quality..............: Insane, (avg. bitrate: 320kbps)
Channels.............: Stereo / 44100 hz
Tags.................: ID3 v1.1, ID3 v2.3
Information..........:

Ripped by............: [TFM] on 2013.06.24.
Posted by............: [TFM] on 2018.08.24.
News Server..........:
News Group(s)........: ahashare. sounds FLAC

Included.............: M3U
Covers...............: Front Back CD[/color][/i][/b]

[img]http://s1.bild.me/bilder/060112/8362179trackeliste.gif[/img]

[b][i][color=Green]1. Al Di Meola - The Wizard [06:48]
2. Al Di Meola - Land Of The Midnight Sun [09:13]
3. Al Di Meola - Sarabande From Violin Sonata In B Minor [01:20]
4. Al Di Meola - Love Theme From 'Pictures Of The Sea' [02:26]
5. Al Di Meola - Suite Golden Dawn [09:49]
6. Al Di Meola - Short Tales Of The Black Forest [05:40]

Playing Time.........: 35:18
Total Size...........: 193,93 MB[/color][/i][/b]

[img]http://s1.bild.me/bilder/060112/5937438vonal3.gif[/img]

[b][i][color=Green]Al Di Meola - Elegant Gypsy[/color][/i][/b]


[b][i][color=Green]1. Al Di Meola - Flight Over Rio [07:16]
2. Al Di Meola - Midnight Tango [07:28]
3. Al Di Meola - Mediterranean Sundance [05:14]
4. Al Di Meola - Race With Devil On Spanish Highway [06:18]
5. Al Di Meola - Lady Of Rome, Sister Of Brazil [01:46]
6. Al Di Meola - Elegant Gypsy Suite [09:16]

Playing Time.........: 37:20
Total Size...........: 229,69 MB[/color][/i][/b]

[img]http://s1.bild.me/bilder/060112/5937438vonal3.gif[/img]

[b][i][color=Green]Al Di Meola - Casino[/color][/i][/b]


[b][i][color=Green]1. Al Di Meola - Egyptian Danza [05:57]
2. Al Di Meola - Chasin' The Voodoo [05:05]
3. Al Di Meola - Dark Eye Tango [05:26]
4. Al Di Meola - Senor Mouse [07:21]
5. Al Di Meola - Viva La Danzarina/Guitars Of The Exotic Isle/Rhapsody Italia/Bravoto Fantasia[05:11]
6. Al Di Meola - Casino [09:29]

Playing Time.........: 38:31
Total Size...........: 176,14 MB[/color][/i][/b]

[img]http://s1.bild.me/bilder/060112/5937438vonal3.gif[/img]

[b][i][color=Green]Al Di Meola - Splendido Hotel[/color][/i][/b]


[b][i][color=Green]1. Al Di Meola - Alien Chase On Arabian Desert [08:58]
2. Al Di Meola - Silent Story In Her Eyes [07:35]
3. Al Di Meola - Roller Jubilee [04:44]
4. Al Di Meola - Two To Tango [04:13]
5. Al Di Meola - Al Di's Dream Theme [06:50]
6. Al Di Meola - Dinner Music Of The Gods [08:33]
7. Al Di Meola - Splendido Sundance [04:51]
8. Al Di Meola - I Can Tell [04:01]
9. Al Di Meola - Spanish Eyes [05:11]
10. Al Di Meola - Isfahan [11:35]
11. Al Di Meola - Bianca's Midnight Lullaby [01:53]

Playing Time.........: 01:08:29
Total Size...........: 408,14 MB[/color][/i][/b]

[img]http://s1.bild.me/bilder/060112/5937438vonal3.gif[/img]

[b][i][color=Green]Al Di Meola - Electric Rendezvous[/color][/i][/b]


[b][i][color=Green]1. Al Di Meola - God Bird Change [03:53]
2. Al Di Meola - Electric Rendezvous [07:47]
3. Al Di Meola - Passion. Grace & Fire [05:40]
4. Al Di Meola - Cruisin' [04:16]
5. Al Di Meola - Black Cat Shuffle [03:01]
6. Al Di Meola - Ritmo De La Noche [04:19]
7. Al Di Meola - Somalia [01:39]
8. Al Di Meola - Jewel Inside A Dream [04:01][/color][/i][/b]

[img]http://s1.bild.me/bilder/060112/2270092pleseedee1.gif[/img]

[img]http://s1.bild.me/bilder/060112/3895751th049.gif[/img]

[b][i][color=Green]Playing Time.........: 34:39
Total Size...........: 203,32 MB[/color][/i][/b]


[URL=https://www.discogs.com/Al-Di-Meola-Original-Album-Classics/release/3023335][img]http://s1.bild.me/bilder/060112/1227895discogs.png[/img][/URL] ]]>
Halloween.H20.20.Years.Later.1998.720p.BluRay.H264.AAC http://glodls.to/torrent.php?id=15932 http://glodls.to/torrent.php?id=15932 Sat, 20 Oct 2018 16:53:23 +0100 Movies
[url=https://imagecurl.com/viewer.php?file=93515963639187029177.png][img]https://imagecurl.com/images/93515963639187029177.png[/img][/url]

[url=https://imagecurl.com/viewer.php?file=93515774315613681690.png][img]https://imagecurl.com/images/93515774315613681690.png[/img][/url]

[url=https://imagecurl.com/viewer.php?file=24717462513328841501.png][img]https://imagecurl.com/images/24717462513328841501.png[/img][/url]

[url=https://imagecurl.com/viewer.php?file=02388968738449140662.png][img]https://imagecurl.com/images/02388968738449140662.png[/img][/url] ]]>
Cherry Crush - Puppy Solo http://glodls.to/torrent.php?id=15931 http://glodls.to/torrent.php?id=15931 Sat, 20 Oct 2018 16:52:53 +0100 Adult XXX
[b]Date[/b]: 2018
[b]Cast[/b]: Cherry Crush
[b]Genre[/b]: solo, toys, teen
[b]Name[/b]: Puppy Solo


[b]Video[/b]: AVC, 1920x1080, 59.940 FPS, 6864 kb/s
[b]Audio[/b]: AAC LC, 48.0 kHz, 2 channels, 317 kb/s
[b]Format[/b]: mp4
[b]Duration[/b]: 00:14:51
]]>
a-ha - Original Album Series - 5-CD-(2009)-[MP3-320]-[TFM] http://glodls.to/torrent.php?id=15930 http://glodls.to/torrent.php?id=15930 Sat, 20 Oct 2018 16:52:46 +0100 Music [img]http://s1.bild.me/bilder/060112/6352020a-ha-originalalbumseries.PNG[/img]
[img]http://s1.bild.me/bilder/060112/5852387wellkomm.gif[/img]

[b][i][color=Green]a-ha - Hunting High And Low[/color][/i][/b]

[img]http://s1.bild.me/bilder/060112/2786529informationee.gif[/img]

[b][i][color=Green]Artist...............: a-ha
Album................: Hunting High And Low
Genre................: Pop
Source...............: CD
Year.................: 1985
Ripper...............: Exact Audio Copy (Secure mode) & LG HL-DT-ST RW/DVD GCC-4120
Codec................: LAME 3.98
Version..............: MPEG 1 Layer III
Quality..............: Insane, (avg. bitrate: 320kbps)
Channels.............: Stereo / 44100 hz
Tags.................: ID3 v1.1, ID3 v2.3
Information..........:

Ripped by............: [TFM] on 2018.09.14.
Posted by............: [TFM] on 2018.09.14.
News Server..........:
News Group(s)........: ahashare. sounds FLAC

Included.............: M3U
Covers...............: Front Back CD[/color][/i][/b]

[img]http://s1.bild.me/bilder/060112/8362179trackeliste.gif[/img]

[b][i][color=Green]1. a-ha - Take On Me [03:47]
2. a-ha - Train Of Thought [04:13]
3. a-ha - Hunting High And Low [03:44]
4. a-ha - The Blue Sky [02:35]
5. a-ha - Living A Boy's Adventure Tale [05:02]
6. a-ha - The Sun Always Shines On T.V. [05:07]
7. a-ha - And You Tell Me [01:51]
8. a-ha - Love Is Reason [03:06]
9. a-ha - I Dream Myself Alive [03:09]
10. a-ha - Here I Stand And Face The Rain [04:29]

Playing Time.........: 37:08
Total Size...........: 85,70 MB[/color][/i][/b]

[img]http://s1.bild.me/bilder/060112/5937438vonal3.gif[/img]

[b][i][color=Green]a-ha - Scoundrel Days[/color][/i][/b]


[b][i][color=Green]1. a-ha - Scoundrel Days [04:01]
2. a-ha - The Swing Of Things [04:14]
3. a-ha - I've Been Losing You [04:23]
4. a-ha - October [03:55]
5. a-ha - Manhattan Skyline [04:52]
6. a-ha - Cry Wolf [04:05]
7. a-ha - We're Looking For The Whales [03:42]
8. a-ha - The Weight Of The Wind [03:59]
9. a-ha - Maybe, Maybe [02:35]
10. a-ha - Soft Rains Of April [03:11]

Playing Time.........: 39:01
Total Size...........: 89,89 MB[/color][/i][/b]

[img]http://s1.bild.me/bilder/060112/5937438vonal3.gif[/img]

[b][i][color=Green]a-ha - Stay On These Roads[/color][/i][/b]


[b][i][color=Green]1. a-ha - Stay On These Roads [04:45]
2. a-ha - The Blood That Moves The Body [04:06]
3. a-ha - Touchy! [04:33]
4. a-ha - This Alone Is Love [05:15]
5. a-ha - Hurry Home [04:36]
6. a-ha - The Living Daylights [04:46]
7. a-ha - There's Never A Forever Thing [02:50]
8. a-ha - Out Of Blue Comes Green [06:41]
9. a-ha - You Are The One [03:50]
10. a-ha - You'll End Up Crying [02:06]

Playing Time.........: 43:33
Total Size...........: 100,25 MB[/color][/i][/b]

[img]http://s1.bild.me/bilder/060112/5937438vonal3.gif[/img]

[b][i][color=Green]a-ha - East Of The Sun West Of The Moon[/color][/i][/b]


[b][i][color=Green]1. a-ha - Crying In The Rain [04:23]
2. a-ha - Early Morning [02:57]
3. a-ha - I Call Your Name [04:53]
4. a-ha - Slender Frame [03:41]
5. a-ha - East Of The Sun [04:46]
6. a-ha - Sycamore Leaves [05:20]
7. a-ha - Waiting For Her [04:48]
8. a-ha - Cold River [04:40]
9. a-ha - The Way We Talk [01:30]
10. a-ha - Rolling Thunder [05:42]
11. a-ha - (Seemingly) Nonstop July [02:54]

Playing Time.........: 45:38
Total Size...........: 105,27 MB[/color][/i][/b]

[img]http://s1.bild.me/bilder/060112/5937438vonal3.gif[/img]

[b][i][color=Green]a-ha - Memorial Beach[/color][/i][/b]


[b][i][color=Green]1. a-ha - Dark Is The Night For All [03:44]
2. a-ha - Move To Memphis [04:21]
3. a-ha - Cold As Stone [08:18]
4. a-ha - Angel In The Snow [04:12]
5. a-ha - Locust [05:07]
6. a-ha - Lie Down In Darkness [04:30]
7. a-ha - How Sweet It Was [06:01]
8. a-ha - Lamb To The Slaughter [04:19]
9. a-ha - Between Your Mama And Yourself [04:14]
10. a-ha - Memorial Beach [04:35][/color][/i][/b]

[img]http://s1.bild.me/bilder/060112/2270092pleseedee1.gif[/img]

[img]http://s1.bild.me/bilder/060112/3895751th049.gif[/img]

[b][i][color=Green]Playing Time.........: 49:25
Total Size...........: 113,87 MB[/color][/i][/b]


[URL=https://www.discogs.com/a-ha-Original-Album-Series/release/3049866][img]http://s1.bild.me/bilder/060112/1227895discogs.png[/img][/URL] ]]>
Scorpions - Still loving You (1992) (by emi) http://glodls.to/torrent.php?id=15929 http://glodls.to/torrent.php?id=15929 Sat, 20 Oct 2018 16:52:38 +0100 Music [img]http://ultraimg.com/images/2016/09/05/ShC9.jpg[/img]

mp3 a 192 kbps
audio di qualità a 95 db

[img]http://2.bp.blogspot.com/-auByxqBnBms/T3CwA0icC4I/AAAAAAAAAK0/71Mzo8XVmCs/s1600/tracklist.png[/img]

01 - Believe In Love.mp3 (6.79 Mb)

02 - Still Loving You.mp3 (8.62 Mb)

03 - Walking On The Edge.mp3 (6.51 Mb)

04 - Born To Touch Your Feelings.mp3 (10.09 Mb)

05 - Lady Starlight.mp3 (8.90 Mb)

06 - Wind Of Change.mp3 (7.32 Mb)

07 - Is There Anybody There.mp3 (6.12 Mb)

08 - Always Somewhere.mp3 (6.94 Mb)

09 - Holiday.mp3 (8.91 Mb)

10 - When The Smoke Is Going Down.mp3 (5.38 Mb)

11 - Living For Tomorrow (Live).mp3 (10.07 Mb)


]]>
Naughty Office http://glodls.to/torrent.php?id=15928 http://glodls.to/torrent.php?id=15928 Sat, 20 Oct 2018 16:50:51 +0100 Adult XXX [center][URL=http://picmoza.com//img-5bcb5c25ab0cb.html][IMG]http://picmoza.com//upload/small/2018/10/20/5bcb5c25ab095.jpg[/IMG][/URL]
[size=4]

Stars: Samantha Saint, Richelle Ryan, Bree Daniels, Kendall Karson, Riley Jenner
Category: All Sex, Office
File size: 2.92 GB
Duration: 02:32:03

[b]SCREENS:[/b]

[url]https://www.iceimg.net/site/v/7760980#2405&7760980[/url]
[url]https://imgadult.com/img-5bcb861615ff1.html[/url]
[url]https://imgdrive.net/img-5bcb8643cc459.html[/url]
[url]http://picmoza.com//img-5bcb5cda7b71a.html[/url]
[url]http://hdmoza.com//img-5bcb5b5e5f77b.html[/url]

[/size]
[/center] ]]>
Halloween.The.Curse.of.Michael.Myers.1995.UNRATED.PRODUCERS.1080p.BluRay.H264.AAC http://glodls.to/torrent.php?id=15927 http://glodls.to/torrent.php?id=15927 Sat, 20 Oct 2018 16:50:41 +0100 Movies
[url=https://imagecurl.com/viewer.php?file=32721644830988182993.png][img]https://imagecurl.com/images/32721644830988182993.png[/img][/url]

[url=https://imagecurl.com/viewer.php?file=77958696875426835349.png][img]https://imagecurl.com/images/77958696875426835349.png[/img][/url]

[url=https://imagecurl.com/viewer.php?file=76901308949963787187.png][img]https://imagecurl.com/images/76901308949963787187.png[/img][/url]

[url=https://imagecurl.com/viewer.php?file=67998684609561024415.png][img]https://imagecurl.com/images/67998684609561024415.png[/img][/url] ]]>
Cherry Crush - Purple Tail Buttplug http://glodls.to/torrent.php?id=15926 http://glodls.to/torrent.php?id=15926 Sat, 20 Oct 2018 16:50:39 +0100 Adult XXX
[b]Date[/b]: 2018
[b]Cast[/b]: Cherry Crush
[b]Genre[/b]: solo, toys, teen, anal
[b]Name[/b]: Purple Tail Buttplug


[b]Video[/b]: AVC, 640x360, 59.940 FPS, 2226 kb/s
[b]Audio[/b]: AAC LC, 48.0 kHz, 2 channels, 317 kb/s
[b]Format[/b]: mp4
[b]Duration[/b]: 00:09:59
]]>
[FakeHubOriginals - FakeHub] Canela Skin Latina Maid For Easter (29 03 2018) http://glodls.to/torrent.php?id=15925 http://glodls.to/torrent.php?id=15925 Sat, 20 Oct 2018 16:50:08 +0100 Adult XXX
Tag :- Latina, Lingerie, Brunette, Tattoo, Big Tits, Big Ass, Hairy Pussy, Big Cock, Blowjob, Deep Throat, Doggystyle, Gonzo, Hardcore, All Sex, Facial

Screenshot :-

[url=http://imgtorrnt.in/view.php?id=t327pOX][color=green] http://imgtorrnt.in/view.php?id=t327pOX [/color] [/url]

[url=http://imgtorrnt.in/view.php?id=qpiPpta][color=green] http://imgtorrnt.in/view.php?id=qpiPpta [/color] [/url]

[img]http://i78.fastpic.ru/big/2018/1018/4d/0752d63923d35e124a69a46363fec24d.jpg[/img]


BTC Address - 1J6iRHTWiXg2Gjhg7ggtBrY87buscQ5ngB

]]>
Cherry Crush - Purple Tail Buttplug http://glodls.to/torrent.php?id=15923 http://glodls.to/torrent.php?id=15923 Sat, 20 Oct 2018 16:48:45 +0100 Adult XXX
[b]Date[/b]: 2018
[b]Cast[/b]: Cherry Crush
[b]Genre[/b]: solo, toys, teen, anal
[b]Name[/b]: Purple Tail Buttplug


[b]Video[/b]: AVC, 1920x1080, 59.940 FPS, 8512 kb/s
[b]Audio[/b]: AAC LC, 48.0 kHz, 2 channels, 317 kb/s
[b]Format[/b]: mp4
[b]Duration[/b]: 00:09:59
]]>
Bharat The Great Leader (2018) Hindi Dubbed (Org) HDRip x264 Mp3 by Full4movies http://glodls.to/torrent.php?id=15922 http://glodls.to/torrent.php?id=15922 Sat, 20 Oct 2018 16:48:35 +0100 Movies
General
Complete name : Bharat The Great Leader (2018) Hindi Dubbed (Org) HDRip x264 Mp3 by Full4movies.mkv
Format : Matroska
Format version : Version 4 / Version 2
File size : 724 MiB
Duration : 2 h 24 min
Overall bit rate : 701 kb/s
Movie name : www.Full4movies.co
Encoded date : UTC 2018-10-20 16:01:26
Writing application : mkvmerge v8.1.0 ('Psychedelic Postcard') 32bit
Writing library : libebml v1.3.1 + libmatroska v1.4.2

Video
ID : 1
Format : AVC
Format/Info : Advanced Video Codec
Format profile : High@L3
Format settings, CABAC : Yes
Format settings, RefFrames : 4 frames
Codec ID : V_MPEG4/ISO/AVC
Duration : 2 h 24 min
Bit rate : 620 kb/s
Width : 720 pixels
Height : 306 pixels
Display aspect ratio : 2.35:1
Frame rate mode : Constant
Frame rate : 30.000 FPS
Color space : YUV
Chroma subsampling : 4:2:0
Bit depth : 8 bits
Scan type : Progressive
Bits/(Pixel*Frame) : 0.094
Stream size : 639 MiB (88%)
Writing library : x264 core 155 r2901 7d0ff22
Default : Yes
Forced : No
Color range : Limited
Color primaries : BT.709
Transfer characteristics : BT.709
Matrix coefficients : BT.709

Audio
ID : 2
Format : MPEG Audio
Format version : Version 1
Format profile : Layer 3
Mode : Joint stereo
Mode extension : MS Stereo
Codec ID : A_MPEG/L3
Codec ID/Hint : MP3
Duration : 2 h 24 min
Bit rate mode : Constant
Bit rate : 80.0 kb/s
Channel(s) : 2 channels
Sampling rate : 44.1 kHz
Frame rate : 38.281 FPS (1152 SPF)
Compression mode : Lossy
Stream size : 82.7 MiB (11%)
Writing library : LAME3.100
Default : Yes
Forced : No

[b]Screen Shoots[/b]
[img]https://extraimage.net/images/2018/10/20/bb5d55a453bd84cbdd03d09a8bf9eda1.jpg[/img] ]]>
Bharat The Great Leader (2018) 720p Hindi Dubbed (Org) HDRip x264 AAC by Full4movies http://glodls.to/torrent.php?id=15921 http://glodls.to/torrent.php?id=15921 Sat, 20 Oct 2018 16:44:19 +0100 Movies
General
Complete name : Bharat The Great Leader (2018) 720p Hindi Dubbed (Org) HDRip x264 AAC by Full4movies.mkv
Format : Matroska
Format version : Version 4 / Version 2
File size : 1.36 GiB
Duration : 2 h 24 min
Overall bit rate : 1 348 kb/s
Movie name : www.Full4movies.co
Encoded date : UTC 2018-10-20 16:00:34
Writing application : mkvmerge v8.1.0 ('Psychedelic Postcard') 32bit
Writing library : libebml v1.3.1 + libmatroska v1.4.2

Video
ID : 1
Format : AVC
Format/Info : Advanced Video Codec
Format profile : High@L3.2
Format settings, CABAC : Yes
Format settings, RefFrames : 4 frames
Codec ID : V_MPEG4/ISO/AVC
Duration : 2 h 24 min
Bit rate : 1 273 kb/s
Width : 1 280 pixels
Height : 544 pixels
Display aspect ratio : 2.35:1
Frame rate mode : Constant
Frame rate : 30.000 FPS
Color space : YUV
Chroma subsampling : 4:2:0
Bit depth : 8 bits
Scan type : Progressive
Bits/(Pixel*Frame) : 0.061
Stream size : 1.28 GiB (94%)
Writing library : x264 core 155 r2901 7d0ff22
Default : Yes
Forced : No
Color range : Limited
Color primaries : BT.709
Transfer characteristics : BT.709
Matrix coefficients : BT.709

Audio
ID : 2
Format : AAC
Format/Info : Advanced Audio Codec
Format profile : LC
Codec ID : A_AAC
Duration : 2 h 24 min
Bit rate : 75.3 kb/s
Channel(s) : 2 channels
Channel positions : Front: L R
Sampling rate : 44.1 kHz
Frame rate : 43.066 FPS (1024 SPF)
Compression mode : Lossy
Delay relative to video : -23 ms
Stream size : 77.8 MiB (6%)
Language : Hindi
Default : Yes
Forced : No

[b]Screen Shoots[/b]
[img]https://extraimage.net/images/2018/10/20/bb5d55a453bd84cbdd03d09a8bf9eda1.jpg[/img] ]]>
Kiss.Me.2017.DVDRip.x264-RedBlade[EtMovies] http://glodls.to/torrent.php?id=15920 http://glodls.to/torrent.php?id=15920 Sat, 20 Oct 2018 16:44:11 +0100 Movies EtMovies - Et High-Definition

-----------------------------------------------------

Kiss.Me.2017.DVDRip.x264-RedBlade

http://www.imdb.com/title//

[Video Bitrate]:.............: 938kb/s
[Duration]:.............: 1 h 23 min
[Video Codec]:.............: AVC
[Resolution]:.............: 720x308 px
[Aspect Ratio]:.............: 2.35:1
[Audio Codec]:.............: AAC
[Audio Bitrate]:.............: 114kb/s
[Audio Channels]:.............: 2.0ch
[Audio Language]:.............: French

Genre .......................:

[color=green][b]#EtMovies -> To avoid fakes, ALWAYS check that the torrent was added by EtMovies [/b][/color]


[url]https://www.ettv.tv/home/[/url]

[color=green][b]To keep us going Support us by donating Bitcoin: 1KsLJXUQzuYnuFZpNp4zsvEXaarKa85ADD[/b][/color]

[b]Screens...[/b]

[url]https://extraimage.net/image/7Zxd[/url]
[url]https://extraimage.net/image/7Zxh[/url]
[url]https://extraimage.net/image/7Zxb[/url]
[url]https://extraimage.net/image/7Zx3[/url]
[url]https://extraimage.net/image/7Zx9[/url]
[url]https://extraimage.net/image/7ZxJ[/url]
]]>
Urban.Legends.Bloody.Mary.2005.1080p.BluRay.H264.AAC http://glodls.to/torrent.php?id=15919 http://glodls.to/torrent.php?id=15919 Sat, 20 Oct 2018 16:44:05 +0100 Movies
[url=https://imagecurl.com/viewer.php?file=80532394557082399728.png][img]https://imagecurl.com/images/80532394557082399728.png[/img][/url]

[url=https://imagecurl.com/viewer.php?file=93730555066585419328.png][img]https://imagecurl.com/images/93730555066585419328.png[/img][/url] ]]>
Kitty Carrera [DigitalPlayground] Meditation Massage (17 10 2018) http://glodls.to/torrent.php?id=15917 http://glodls.to/torrent.php?id=15917 Sat, 20 Oct 2018 16:43:15 +0100 Adult XXX
Tag :- All sex

Screenshot :-

[url=http://imgtorrnt.in/view.php?id=iIvonLg][color=green] http://imgtorrnt.in/view.php?id=iIvonLg [/color] [/url]

[url=http://imgtorrnt.in/view.php?id=cDqvkZp][color=green] http://imgtorrnt.in/view.php?id=cDqvkZp [/color] [/url]

[img]http://i91.fastpic.ru/big/2018/1010/b4/a1810877e648a6abd799b79709bb86b4.jpg[/img]


BTC Address - 1J6iRHTWiXg2Gjhg7ggtBrY87buscQ5ngB

]]>